TipTheAuthors.com

Vasta
Kasutaja avatar
eerik
Site Admin
Postitusi: 543
Liitunud: 04 Sept 2009, 15:06
Asukoht: Tallinn
Kontakt:

TipTheAuthors.com

Postitus Postitas eerik » 20 Aug 2012, 16:00

Hiljuti on tööd alustanud selline veebipood nagu TipTheAuthors.com, mis tegeleb (Eesti) filmide digitaalse müügiga.

Filmide allalaadimine käib läbi Bittorrent tehnoloogia. Saadaval on erineva kvaliteedi ja hinnaga versioonid. Praegu on HDs saadaval ainult sürrealistlik lühinukufilm Taevalaul. Registreerumisel sain 2 euro eest ettemaksu krediiti, mille eest ma Taevalaulu testimiseks tõmbasin. Tegemist on lihtsa MP4 failiga. Igasugune peavalu tekitav DRM puudub.

MediaInfo rapart:

Kood: Vali kõik

General
Complete name                            : C:\Users\Eerik\Downloads\Sky Song.mp4
Format                                   : MPEG-4
Format profile                           : Base Media / Version 2
Codec ID                                 : mp42
File size                                : 1.45 GiB
Duration                                 : 45mn 16s
Overall bit rate mode                    : Variable
Overall bit rate                         : 4 574 Kbps
Encoded date                             : UTC 2012-05-05 08:06:49
Tagged date                              : UTC 2012-05-09 07:56:59
Writing application                      : HandBrake 0.9.6 2012022800

Video
ID                                       : 1
Format                                   : AVC
Format/Info                              : Advanced Video Codec
Format profile                           : High@L4.0
Format settings, CABAC                   : Yes
Format settings, ReFrames                : 4 frames
Codec ID                                 : avc1
Codec ID/Info                            : Advanced Video Coding
Duration                                 : 45mn 16s
Bit rate mode                            : Variable
Bit rate                                 : 4 406 Kbps
Width                                    : 1 920 pixels
Height                                   : 1 080 pixels
Display aspect ratio                     : 16:9
Frame rate mode                          : Constant
Frame rate                               : 25.000 fps
Color space                              : YUV
Chroma subsampling                       : 4:2:0
Bit depth                                : 8 bits
Scan type                                : Progressive
Bits/(Pixel*Frame)                       : 0.085
Stream size                              : 1.39 GiB (96%)
Writing library                          : x264 core 120
Encoding settings                        : cabac=1 / ref=2 / deblock=1:0:0 / analyse=0x3:0x113 / me=hex / subme=2 / psy=1 / psy_rd=1.00:0.00 / mixed_ref=1 / me_range=16 / chroma_me=1 / trellis=0 / 8x8dct=1 / cqm=0 / deadzone=21,11 / fast_pskip=1 / chroma_qp_offset=0 / threads=6 / sliced_threads=0 / nr=0 / decimate=1 / interlaced=0 / bluray_compat=0 / constrained_intra=0 / bframes=3 / b_pyramid=2 / b_adapt=1 / b_bias=0 / direct=1 / weightb=1 / open_gop=0 / weightp=1 / keyint=250 / keyint_min=25 / scenecut=40 / intra_refresh=0 / rc_lookahead=10 / rc=crf / mbtree=1 / crf=20.0 / qcomp=0.60 / qpmin=3 / qpmax=69 / qpstep=4 / ip_ratio=1.40 / aq=1:1.00
Encoded date                             : UTC 2012-05-05 08:06:49
Tagged date                              : UTC 2012-05-05 09:28:27
Color primaries                          : BT.709-5, BT.1361, IEC 61966-2-4, SMPTE RP177
Transfer characteristics                 : BT.709-5, BT.1361
Matrix coefficients                      : BT.709-5, BT.1361, IEC 61966-2-4 709, SMPTE RP177

Audio
ID                                       : 2
Format                                   : AAC
Format/Info                              : Advanced Audio Codec
Format profile                           : LC
Codec ID                                 : 40
Duration                                 : 45mn 16s
Bit rate mode                            : Variable
Bit rate                                 : 165 Kbps
Maximum bit rate                         : 285 Kbps
Channel(s)                               : 2 channels
Channel positions                        : Front: L R
Sampling rate                            : 48.0 KHz
Compression mode                         : Lossy
Delay relative to video                  : -80ms
Stream size                              : 53.4 MiB (4%)
Language                                 : English
Encoded date                             : UTC 2012-05-05 08:06:49
Tagged date                              : UTC 2012-05-05 09:28:27
Mõned kiiruga tehtud screenshotid ka:
Sky Song.mp4_snapshot_02.18_[2012.08.20_16.55.48].png
Sky Song.mp4_snapshot_15.05_[2012.08.20_16.56.06].png
Sky Song.mp4_snapshot_20.55_[2012.08.20_16.57.02].png
Sky Song.mp4_snapshot_28.17_[2012.08.20_16.56.42].png
Saatsin neile ka lühikese e-maili soovitusega, et nad rohkem HD materjali lisaksid. Eks näis, kuidas asjad edasi arenevad.
Minu Blu-ray kollektsioon (kasvab aeglaselt, aga kindlalt)

liromeno
Postitusi: 281
Liitunud: 11 Sept 2009, 10:07

Re: TipTheAuthors.com

Postitus Postitas liromeno » 20 Aug 2012, 18:18

Huvitav.
Algatus iseenesest väga meeldiv, aga küllap kohalikud "autorikaitsjad" puhkuselt naastes selle kiiresti ära lämmatavad.

Mitu asja jääb muidugi silma:
- ka kõige olulisem info ehk teenuse kasutustingimused on ainult inglise keeles, eestikeelne puudub
- bittorrent, kui järjekordne liigne soft mida arvutisse ei taha (sarnaselt iTunesi jms kraamiga). Kasutajamugavuse seisukohalt peaks olema defaultina lihtne striimilahendus - 7GB faili laadimine SD kvaliteedi nimel lihtsalt ei müü, 5-eurone EPL-i filmiplaat on kokkuvõtes oluliselt mugavam, odavam ja taasvõõrandatavam kui 2-eurone fail.
- tehnilise info nappus nii filmifailide kui faili vaatamiseks nõutava riistvara osas (eriti esmakasutajale või n HD failide puhul)
- ebastandardus ja kasutatud koodekite segapudru - valikus vanakooli divx-mahtu pakitud vs ülisuured 1:1 ripid (mõttetu ribalaiuse koormamine - selle teenuse kasutaja ilmselgelt ei hakka endale kahekihilisi DVD-sid kõrvetama, et film kuhugi "ära mahuks"). Lisaväärtuse annaks läbivalt ühtsed standardid faili- ja pildisuurustele, koodekitele, bitrate'idele ja subtiitritele (n 428x240 px või 718x432 px on kohatud) ning selgitus, mis tüüpi massinatega (arvuti, nutitelekas, meediapleier, DVD-mängija, nutitelefon jpm) millist faili üldse mängida võiks proovida ja kuidas neid sinna saada.
- kasutajakonto vaid läbi näoraamatu
- levitajana ei paistaks projekt kuigi tõsiseltvõetav

Saab näha, kas teenus jõuab 2.0 staadiumi.

Kasutaja avatar
eerik
Site Admin
Postitusi: 543
Liitunud: 04 Sept 2009, 15:06
Asukoht: Tallinn
Kontakt:

Re: TipTheAuthors.com

Postitus Postitas eerik » 20 Aug 2012, 19:05

Sain vastuse enda saadetud e-mailile ja HD versioonide lisamine on neil täiesti plaanis. Küsisin ka võimalikust koostööst Tallinnfilmiga ning praegu käivad selles osas läbirääkimised. Mina oleksin näiteks restaureeritud Kevade @ 1080p/2K eest nõus maksma küll. Hoian sellel projektil igatahes silma peal.
Minu Blu-ray kollektsioon (kasvab aeglaselt, aga kindlalt)

Kasutaja avatar
eerik
Site Admin
Postitusi: 543
Liitunud: 04 Sept 2009, 15:06
Asukoht: Tallinn
Kontakt:

Re: TipTheAuthors.com

Postitus Postitas eerik » 23 Aug 2012, 18:30

Minu Blu-ray kollektsioon (kasvab aeglaselt, aga kindlalt)

Kasutaja avatar
eerik
Site Admin
Postitusi: 543
Liitunud: 04 Sept 2009, 15:06
Asukoht: Tallinn
Kontakt:

Re: TipTheAuthors.com

Postitus Postitas eerik » 31 Aug 2012, 10:41

Nädalaga pole peaaegu mingisugust arengut toimunud, kui siis halvemuse poole. Lisandunud on mõned amatöörlühifilmid, samas "Üks mu sõber" on nimekirjast kadunud.
Minu Blu-ray kollektsioon (kasvab aeglaselt, aga kindlalt)

Kasutaja avatar
eerik
Site Admin
Postitusi: 543
Liitunud: 04 Sept 2009, 15:06
Asukoht: Tallinn
Kontakt:

Re: TipTheAuthors.com

Postitus Postitas eerik » 04 Sept 2012, 20:33

Minu Blu-ray kollektsioon (kasvab aeglaselt, aga kindlalt)

Kasutaja avatar
eerik
Site Admin
Postitusi: 543
Liitunud: 04 Sept 2009, 15:06
Asukoht: Tallinn
Kontakt:

Re: TipTheAuthors.com

Postitus Postitas eerik » 09 Sept 2012, 11:18

Tänasest saab maksta ka SEB ja Swedbanki pangalinkidega, nii et mingisugune areng vähemalt toimub.
Minu Blu-ray kollektsioon (kasvab aeglaselt, aga kindlalt)

Kasutaja avatar
eerik
Site Admin
Postitusi: 543
Liitunud: 04 Sept 2009, 15:06
Asukoht: Tallinn
Kontakt:

Re: TipTheAuthors.com

Postitus Postitas eerik » 23 Dets 2012, 15:19

Tasapisi on sinna filme juurde ilmunud. HD kvaliteediga on kahjuks ainult kaks tudengilühifilmi. Mõlemal on ingliskeelsed subtiitrid videole "sisse põletatud".

Pricel€ss

Kood: Vali kõik

General
Complete name                            : C:\Users\Eerik\Downloads\Priceless_1080p.mp4
Format                                   : MPEG-4
Format profile                           : Base Media / Version 2
Codec ID                                 : mp42
File size                                : 2.59 GiB
Duration                                 : 22mn 53s
Overall bit rate mode                    : Variable
Overall bit rate                         : 16.2 Mbps
Encoded date                             : UTC 2012-11-14 17:05:13
Tagged date                              : UTC 2012-11-14 17:07:16

Video
ID                                       : 2
Format                                   : AVC
Format/Info                              : Advanced Video Codec
Format profile                           : Main@L5.0
Format settings, CABAC                   : No
Format settings, ReFrames                : 2 frames
Format settings, GOP                     : M=2, N=3
Codec ID                                 : avc1
Codec ID/Info                            : Advanced Video Coding
Duration                                 : 22mn 53s
Bit rate mode                            : Variable
Bit rate                                 : 15.9 Mbps
Maximum bit rate                         : 21.0 Mbps
Width                                    : 1 920 pixels
Height                                   : 816 pixels
Display aspect ratio                     : 2.35:1
Frame rate mode                          : Constant
Frame rate                               : 25.000 fps
Color space                              : YUV
Chroma subsampling                       : 4:2:0
Bit depth                                : 8 bits
Scan type                                : Progressive
Bits/(Pixel*Frame)                       : 0.405
Stream size                              : 2.54 GiB (98%)
Language                                 : English
Encoded date                             : UTC 2012-11-14 16:59:49
Tagged date                              : UTC 2012-11-14 17:07:16
Color primaries                          : BT.709
Transfer characteristics                 : BT.709
Matrix coefficients                      : BT.709

Audio
ID                                       : 1
Format                                   : AAC
Format/Info                              : Advanced Audio Codec
Format profile                           : LC
Codec ID                                 : 40
Duration                                 : 22mn 53s
Bit rate mode                            : Constant
Bit rate                                 : 320 Kbps
Channel(s)                               : 2 channels
Channel positions                        : Front: L R
Sampling rate                            : 48.0 KHz
Compression mode                         : Lossy
Delay relative to video                  : 40ms
Stream size                              : 51.6 MiB (2%)
Language                                 : English
Encoded date                             : UTC 2012-11-14 16:59:49
Tagged date                              : UTC 2012-11-14 17:07:16
Manused
Priceless_1080p.mp4_snapshot_00.41_[2012.12.23_15.08.31].png
Priceless_1080p.mp4_snapshot_01.56_[2012.12.23_15.03.png
Priceless_1080p.mp4_snapshot_02.33_[2012.12.23_15.04.40].png
Priceless_1080p.mp4_snapshot_07.47_[2012.12.23_15.04.31].png
Priceless_1080p.mp4_snapshot_09.19_[2012.12.23_15.03.49].png
Minu Blu-ray kollektsioon (kasvab aeglaselt, aga kindlalt)

Kasutaja avatar
eerik
Site Admin
Postitusi: 543
Liitunud: 04 Sept 2009, 15:06
Asukoht: Tallinn
Kontakt:

Re: TipTheAuthors.com

Postitus Postitas eerik » 23 Dets 2012, 15:22

Legend vägevast seebist

Kood: Vali kõik

General
Unique ID                                : 172755975818408300895134390010336480192 (0x81F79737769303CBB908AEB55D938BC0)
Complete name                            : C:\Users\Eerik\Downloads\The Legend Of The Mighty Soap 1080p ENG subs H264.mkv
Format                                   : Matroska
Format version                           : Version 2
File size                                : 5.44 GiB
Duration                                 : 24mn 0s
Overall bit rate                         : 32.4 Mbps
Encoded date                             : UTC 2012-09-28 20:50:04
Writing application                      : mkvmerge v5.8.0 ('No Sleep / Pillow') built on Sep  2 2012 15:37:04
Writing library                          : libebml v1.2.3 + libmatroska v1.3.0

Video
ID                                       : 2
Format                                   : AVC
Format/Info                              : Advanced Video Codec
Format profile                           : Main@L4.2
Format settings, CABAC                   : Yes
Format settings, ReFrames                : 3 frames
Format settings, GOP                     : M=4, N=33
Muxing mode                              : Header stripping
Codec ID                                 : V_MPEG4/ISO/AVC
Duration                                 : 24mn 0s
Bit rate                                 : 31.3 Mbps
Width                                    : 1 920 pixels
Height                                   : 1 080 pixels
Display aspect ratio                     : 16:9
Frame rate mode                          : Constant
Frame rate                               : 25.000 fps
Standard                                 : PAL
Color space                              : YUV
Chroma subsampling                       : 4:2:0
Bit depth                                : 8 bits
Scan type                                : Progressive
Bits/(Pixel*Frame)                       : 0.605
Stream size                              : 5.25 GiB (97%)
Language                                 : English
Default                                  : Yes
Forced                                   : No

Audio
ID                                       : 1
Format                                   : AC-3
Format/Info                              : Audio Coding 3
Mode extension                           : CM (complete main)
Format settings, Endianness              : Big
Muxing mode                              : Header stripping
Codec ID                                 : A_AC3
Duration                                 : 24mn 0s
Bit rate mode                            : Constant
Bit rate                                 : 448 Kbps
Channel(s)                               : 6 channels
Channel positions                        : Front: L C R, Side: L R, LFE
Sampling rate                            : 48.0 KHz
Bit depth                                : 16 bits
Compression mode                         : Lossy
Stream size                              : 76.9 MiB (1%)
Default                                  : Yes
Forced                                   : No
Manused
The Legend Of The Mighty Soap 1080p ENG subs H264.mkv_snapshot_00.40_[2012.12.23_15.05.12].png
The Legend Of The Mighty Soap 1080p ENG subs H264.mkv_snapshot_03.40_[2012.12.23_15.05.39].png
The Legend Of The Mighty Soap 1080p ENG subs H264.mkv_snapshot_12.25_[2012.12.23_15.05.53].png
The Legend Of The Mighty Soap 1080p ENG subs H264.mkv_snapshot_20.15_[2012.12.23_15.06.14].png
Minu Blu-ray kollektsioon (kasvab aeglaselt, aga kindlalt)

Vasta

Kes on foorumil

Kasutajad foorumit lugemas: Registreeritud kasutajaid pole ja 1 külaline