Päris eesti oma BD

Vasta
Kasutaja avatar
eerik
Site Admin
Postitusi: 542
Liitunud: 04 Sept 2009, 15:06
Asukoht: Tallinn
Kontakt:

Re: Päris eesti oma BD

Postitus Postitas eerik » 19 Jaan 2016, 10:35

Nii, soomlaste 1944 plaat on käes. Väga hea meelega võin öelda, et üldplaanis täiesti ootuspärane ja iseenesest mõistetav Blu-ray reliis, ehk siis tõenäoliselt parim eesti filmi Blu-ray siiani. (Prantslaste Risttuules väljaannet mul veel pole, nii et see võib parem olla.)
  • Mitte-kole, võiks lausa öelda et kena kujundusega karp. Kahepoolselt prinditud kaaned, st karbi avamisel on seespool pilt.
  • Samuti kena, lihtne ja funktsionaalne menüü.
  • 1080p, 24fps, AVC video. Paraku veidi madala bitratega, ent kiirel läbi klõpsimisel pädeva kompressiooniga.
  • Originaalheli kahes erinevas formaadis: lossless 5.1 surround ja uncompressed 2.0 stereo.
  • Täiesti vabalt eemaldatavad subtiitrid.
  • Lisamaterjalid on kenasti 1080p AVC video ja 2.0 LPCM heliga. Lisadeks on soome treiler ja need samad väljajäänud stseenid + making-of klipid, mis eesti ja saksa plaatidelgi.
BDInfo raport

Kood: Vali kõik


DISC INFO:

Disc Title:     1944
Disc Size:      21 599 110 933 bytes
Protection:     AACS
BD-Java:        No
BDInfo:         0.5.8

PLAYLIST REPORT:

Name:                   00000.MPLS
Length:                 1:40:01.078 (h:m:s.ms)
Size:                   17 349 188 736 bytes
Total Bitrate:          23,13 Mbps

VIDEO:

Codec                   Bitrate             Description     
-----                   -------             -----------     
MPEG-4 AVC Video        16959 kbps          1080p / 23,976 fps / 16:9 / High Profile 4.1

AUDIO:

Codec                           Language        Bitrate         Description     
-----                           --------        -------         -----------     
DTS-HD Master Audio             Estonian        3228 kbps       5.1 / 48 kHz / 3228 kbps / 24-bit (DTS Core: 5.1 / 48 kHz / 768 kbps / 24-bit)
LPCM Audio                      Estonian        1536 kbps       2.0 / 48 kHz / 1536 kbps / 16-bit

FILES:

Name            Time In         Length          Size            Total Bitrate   
----            -------         ------          ----            -------------   
00000.M2TS      0:00:00.000     1:40:00.452     17 349 175 296  23 130          
00012.M2TS      1:40:00.452     0:00:00.625     13 440          161             

CHAPTERS:

Number          Time In         Length          Avg Video Rate  Max 1-Sec Rate  Max 1-Sec Time  Max 5-Sec Rate  Max 5-Sec Time  Max 10Sec Rate  Max 10Sec Time  Avg Frame Size  Max Frame Size  Max Frame Time  
------          -------         ------          --------------  --------------  --------------  --------------  --------------  --------------  --------------  --------------  --------------  --------------  
1               0:00:00.000     0:09:54.176     18 044 kbps     44 247 kbps     00:08:12.241    37 137 kbps     00:08:44.190    34 659 kbps     00:08:41.229    94 065 bytes    295 504 bytes   00:01:22.248    
2               0:09:54.176     0:04:58.715     14 799 kbps     20 327 kbps     00:12:38.132    18 477 kbps     00:14:31.620    18 430 kbps     00:14:27.241    77 154 bytes    201 000 bytes   00:12:30.291    
3               0:14:52.892     0:04:04.911     17 270 kbps     25 119 kbps     00:18:37.950    21 077 kbps     00:18:35.948    19 727 kbps     00:16:15.349    90 038 bytes    240 201 bytes   00:18:23.310    
4               0:18:57.803     0:04:25.640     20 268 kbps     44 154 kbps     00:22:12.205    34 480 kbps     00:20:11.126    32 513 kbps     00:20:14.421    105 667 bytes   332 646 bytes   00:20:33.982    
5               0:23:23.443     0:11:31.732     15 986 kbps     40 398 kbps     00:31:49.365    27 774 kbps     00:31:48.781    24 599 kbps     00:31:30.013    83 342 bytes    447 198 bytes   00:31:06.656    
6               0:34:55.176     0:09:11.133     20 032 kbps     44 220 kbps     00:37:40.841    38 247 kbps     00:35:39.470    32 319 kbps     00:37:02.887    104 439 bytes   345 128 bytes   00:39:48.094    
7               0:44:06.310     0:14:38.419     16 800 kbps     42 257 kbps     00:49:17.579    35 741 kbps     00:49:16.453    32 662 kbps     00:49:16.495    87 587 bytes    429 861 bytes   00:52:41.491    
8               0:58:44.729     0:09:40.830     16 722 kbps     44 715 kbps     00:59:44.455    32 099 kbps     01:02:17.108    31 875 kbps     01:02:14.605    87 178 bytes    345 956 bytes   01:00:09.063    
9               1:08:25.559     0:12:47.850     15 502 kbps     38 755 kbps     01:11:18.399    29 683 kbps     01:13:42.751    24 767 kbps     01:11:14.687    80 821 bytes    356 139 bytes   01:17:19.509    
10              1:21:13.410     0:08:40.353     21 398 kbps     43 435 kbps     01:24:03.997    38 372 kbps     01:25:39.509    34 959 kbps     01:25:37.632    111 561 bytes   296 590 bytes   01:24:36.321    
11              1:29:53.763     0:07:12.557     16 441 kbps     43 217 kbps     01:30:30.716    28 624 kbps     01:30:29.465    24 635 kbps     01:30:24.460    85 717 bytes    284 386 bytes   01:36:45.382    
12              1:37:06.320     0:02:54.757     1 699 kbps      4 144 kbps      01:37:51.240    3 807 kbps      01:37:49.238    3 615 kbps      01:37:44.567    8 859 bytes     211 308 bytes   01:37:51.365    

STREAM DIAGNOSTICS:

File            PID             Type            Codec           Language                Seconds                 Bitrate                 Bytes           Packets         
----            ---             ----            -----           --------                --------------          --------------          -------------   -----           
00000.M2TS      4113 (0x1011)   0x1B            AVC                                     6000,369                16 961                  12 721 246 104  69 221 519      
00000.M2TS      4352 (0x1100)   0x86            DTS-HD MA       est (Estonian)          6000,369                3 228                   2 421 315 612   13 737 191      
00000.M2TS      4353 (0x1101)   0x80            LPCM            est (Estonian)          6000,369                1 542                   1 156 888 688   7 200 552       
00012.M2TS      4113 (0x1011)   0x1B            AVC                                     0,959                   100                     12 036          74              

1944-00000-bitrate-05s.png
Lühidalt kokkuvõttes: pädeva teostusega Blu-ray väljaanne.
Minu Blu-ray kollektsioon (kasvab aeglaselt, aga kindlalt)

Kasutaja avatar
eerik
Site Admin
Postitusi: 542
Liitunud: 04 Sept 2009, 15:06
Asukoht: Tallinn
Kontakt:

Re: Päris eesti oma BD

Postitus Postitas eerik » 01 Veebr 2016, 22:23

Head uudised! Vehkleja plaat on sama hea kui 1944! Ainsaks lisamaterjaliks paraku vaid filmi treiler (soome/rahvusvaheline versioon).

Kood: Vali kõik


DISC INFO:

Disc Title:     MIEKKAILIJA
Disc Size:      24 626 935 734 bytes
Protection:     AACS
BD-Java:        No
BDInfo:         0.5.8

PLAYLIST REPORT:

Name:                   00000.MPLS
Length:                 1:38:28.193 (h:m:s.ms)
Size:                   23 930 573 952 bytes
Total Bitrate:          32,40 Mbps

VIDEO:

Codec                   Bitrate             Description     
-----                   -------             -----------     
MPEG-4 AVC Video        24977 kbps          1080p / 23,976 fps / 16:9 / High Profile 4.1

AUDIO:

Codec                           Language        Bitrate         Description     
-----                           --------        -------         -----------     
DTS-HD Master Audio             Estonian        3279 kbps       5.1 / 48 kHz / 3279 kbps / 24-bit (DTS Core: 5.1 / 48 kHz / 768 kbps / 24-bit)
LPCM Audio                      Estonian        2304 kbps       2.0 / 48 kHz / 2304 kbps / 24-bit
Dolby Digital Audio             Finnish         192 kbps        2.0 / 48 kHz / 192 kbps / DN -6dB

FILES:

Name            Time In         Length          Size            Total Bitrate   
----            -------         ------          ----            -------------   
00000.M2TS      0:00:00.000     1:38:27.568     23 930 560 512  32 407          
00008.M2TS      1:38:27.568     0:00:00.625     13 440          161             

CHAPTERS:

Number          Time In         Length          Avg Video Rate  Max 1-Sec Rate  Max 1-Sec Time  Max 5-Sec Rate  Max 5-Sec Time  Max 10Sec Rate  Max 10Sec Time  Avg Frame Size  Max Frame Size  Max Frame Time  
------          -------         ------          --------------  --------------  --------------  --------------  --------------  --------------  --------------  --------------  --------------  --------------  
1               0:00:00.000     0:07:50.344     18 716 kbps     48 837 kbps     00:01:23.958    35 917 kbps     00:05:30.663    33 641 kbps     00:03:22.911    97 569 bytes    445 147 bytes   00:02:29.065    
2               0:07:50.344     0:07:26.946     27 901 kbps     43 700 kbps     00:10:45.436    38 044 kbps     00:10:45.144    36 889 kbps     00:10:44.810    145 465 bytes   479 198 bytes   00:07:53.347    
3               0:15:17.291     0:07:59.020     29 349 kbps     41 652 kbps     00:20:21.345    36 584 kbps     00:19:09.565    36 308 kbps     00:20:58.632    153 010 bytes   454 515 bytes   00:22:04.823    
4               0:23:16.311     0:09:32.488     27 996 kbps     40 487 kbps     00:27:38.406    35 708 kbps     00:27:38.490    35 237 kbps     00:27:37.864    145 957 bytes   447 360 bytes   00:24:20.917    
5               0:32:48.800     0:04:34.482     21 202 kbps     36 181 kbps     00:36:52.376    30 385 kbps     00:33:23.000    28 011 kbps     00:36:49.165    110 537 bytes   380 601 bytes   00:32:54.806    
6               0:37:23.282     0:08:16.287     25 015 kbps     44 423 kbps     00:44:26.372    38 000 kbps     00:44:23.077    35 697 kbps     00:44:22.618    130 418 bytes   429 456 bytes   00:44:11.815    
7               0:45:39.570     0:14:09.098     28 722 kbps     44 181 kbps     00:46:48.639    38 021 kbps     00:46:47.554    35 342 kbps     00:48:20.606    149 744 bytes   442 683 bytes   00:51:41.848    
8               0:59:48.668     0:11:20.846     26 728 kbps     41 361 kbps     01:06:59.056    36 291 kbps     01:10:19.256    34 694 kbps     01:03:09.118    139 348 bytes   463 778 bytes   01:06:15.596    
9               1:11:09.515     0:08:06.277     27 298 kbps     42 828 kbps     01:19:04.906    36 481 kbps     01:12:19.460    34 234 kbps     01:16:14.861    142 321 bytes   456 240 bytes   01:15:10.881    
10              1:19:15.792     0:11:35.027     25 030 kbps     42 659 kbps     01:22:36.743    34 286 kbps     01:29:04.714    31 005 kbps     01:20:46.591    130 495 bytes   436 769 bytes   01:28:25.591    
11              1:30:50.820     0:03:26.998     20 434 kbps     44 049 kbps     01:33:13.212    34 956 kbps     01:32:29.919    30 475 kbps     01:32:28.334    106 532 bytes   403 122 bytes   01:32:34.799    
12              1:34:17.818     0:04:10.375     1 947 kbps      6 204 kbps      01:37:14.995    5 278 kbps      01:37:12.034    4 978 kbps      01:37:08.197    10 153 bytes    273 300 bytes   01:37:15.996    

STREAM DIAGNOSTICS:

File            PID             Type            Codec           Language                Seconds                 Bitrate                 Bytes           Packets         
----            ---             ----            -----           --------                --------------          --------------          -------------   -----           
00000.M2TS      4113 (0x1011)   0x1B            AVC                                     5907,443                24 980                  18 445 964 765  100 332 110     
00000.M2TS      4352 (0x1100)   0x86            DTS-HD MA       est (Estonian)          5907,443                3 279                   2 421 584 576   13 733 113      
00000.M2TS      4353 (0x1101)   0x80            LPCM            est (Estonian)          5907,443                2 310                   1 706 107 660   9 452 120       
00000.M2TS      4354 (0x1102)   0x81            AC3             fin (Finnish)           5907,443                192                     141 782 016     923 060         
00008.M2TS      4113 (0x1011)   0x1B            AVC                                     0,959                   100                     12 036          74              

Manused
MIEKKAILIJA-00000-bitrate-05s.png
Minu Blu-ray kollektsioon (kasvab aeglaselt, aga kindlalt)

liromeno
Postitusi: 280
Liitunud: 11 Sept 2009, 10:07

Re: Päris eesti oma BD

Postitus Postitas liromeno » 03 Veebr 2016, 21:20

Täpsustus Vehkleja osas:
IGG hüvena saabunud plaat ei ole sama, mis Soomes ilmus - tegemist on nn promoplaadiga (kettal tekst "For Your Consideration" - Oscari valijameeste tarbeks), kus kohustuslikud ingliskeelsed subtiitrid.
Treilerit ei ole. Karbikaas on kenasti ingliskeelne (prinditud), plaat samuti.
Nähtavaid vesimärke esmapilgul õnneks ei paistnud.

Kasutaja avatar
eerik
Site Admin
Postitusi: 542
Liitunud: 04 Sept 2009, 15:06
Asukoht: Tallinn
Kontakt:

Re: Päris eesti oma BD

Postitus Postitas eerik » 03 Veebr 2016, 22:29

IndieGoGo kampaania plaat jõudis täna ka minuni paraku on tõesti tegemist väga kodukootud plaadiga.
  • BD-R
  • MPEG2
  • Dolby Digital
  • Sissekõrvetatud (burnt-in) subtiitrid
Kuigi esikaane pilt on erinev ja tekstid ingliskeelsed, on plaadümbris tehtud täpselt sama malli järgi kui sellel poeversioonil. Isegi märgitud heliformaat on jäänud valeks ja DTS-MA logo eemaldamata. Vaevalt sellel regioon B lukk ka peal on. Ilmselt on siis lihtsalt tegu Oscari-kampaaniast üle jäänud plaatidega, millest oli nüüd mugav lahti saada.

Igatahes, kes IGG kampaania maha magasid või lihtsalt ei tahtnud seda toetada ei jäänud mitte millestki ilma. Poe plaat on parem, tehases pressitud ja vastab "moodsatele standarditele".

Kood: Vali kõik


DISC INFO:

Disc Title:     TheFencer
Disc Size:      21 889 327 180 bytes
Protection:     AACS
BD-Java:        No
BDInfo:         0.5.8

PLAYLIST REPORT:

Name:                   00001.MPLS
Length:                 1:38:13.554 (h:m:s.ms)
Size:                   21 887 582 208 bytes
Total Bitrate:          29,71 Mbps

VIDEO:

Codec                   Bitrate             Description     
-----                   -------             -----------     
MPEG-2 Video            27713 kbps          1080p / 23,976 fps

AUDIO:

Codec                           Language        Bitrate         Description     
-----                           --------        -------         -----------     
Dolby Digital Audio             Estonian        192 kbps        2.0 / 48 kHz / 192 kbps / DN -4dB
Dolby Digital Audio             Estonian        448 kbps        5.1 / 48 kHz / 448 kbps / DN -4dB

FILES:

Name            Time In         Length          Size            Total Bitrate   
----            -------         ------          ----            -------------   
00001.M2TS      0:00:00.000     1:38:13.554     21 887 582 208  29 711          

CHAPTERS:

Number          Time In         Length          Avg Video Rate  Max 1-Sec Rate  Max 1-Sec Time  Max 5-Sec Rate  Max 5-Sec Time  Max 10Sec Rate  Max 10Sec Time  Avg Frame Size  Max Frame Size  Max Frame Time  
------          -------         ------          --------------  --------------  --------------  --------------  --------------  --------------  --------------  --------------  --------------  --------------  
1               0:00:00.000     0:05:00.299     22 382 kbps     36 029 kbps     00:01:09.778    30 957 kbps     00:02:18.847    30 454 kbps     00:02:18.847    116 674 bytes   760 194 bytes   00:04:01.241    
2               0:05:00.299     0:05:00.299     28 609 kbps     34 116 kbps     00:08:24.587    30 890 kbps     00:09:11.551    30 416 kbps     00:07:02.922    149 155 bytes   746 123 bytes   00:07:40.460    
3               0:10:00.599     0:05:00.300     28 706 kbps     35 316 kbps     00:10:23.706    30 873 kbps     00:10:23.622    30 510 kbps     00:13:17.880    149 658 bytes   787 949 bytes   00:10:46.145    
4               0:15:00.900     0:05:00.299     29 364 kbps     34 635 kbps     00:16:40.082    31 010 kbps     00:15:28.135    30 428 kbps     00:15:48.530    153 092 bytes   834 120 bytes   00:18:40.119    
5               0:20:01.200     0:05:00.299     28 616 kbps     34 270 kbps     00:23:32.661    30 915 kbps     00:22:50.994    30 449 kbps     00:23:39.126    149 189 bytes   780 385 bytes   00:24:16.955    
6               0:25:01.500     0:05:00.300     28 746 kbps     33 545 kbps     00:25:50.257    30 795 kbps     00:28:09.646    30 378 kbps     00:25:50.048    149 869 bytes   738 712 bytes   00:29:25.263    
7               0:30:01.800     0:05:00.299     28 483 kbps     34 181 kbps     00:30:23.822    30 838 kbps     00:31:31.890    30 509 kbps     00:30:23.363    148 499 bytes   776 764 bytes   00:31:56.915    
8               0:35:02.100     0:05:00.300     26 575 kbps     34 766 kbps     00:39:04.842    30 927 kbps     00:38:26.012    30 365 kbps     00:38:26.012    138 550 bytes   745 374 bytes   00:35:14.112    
9               0:40:02.400     0:05:00.299     27 103 kbps     34 554 kbps     00:41:49.590    30 879 kbps     00:44:06.685    30 548 kbps     00:43:38.699    141 303 bytes   718 396 bytes   00:42:14.532    
10              0:45:02.700     0:05:00.300     29 200 kbps     34 904 kbps     00:45:07.204    30 948 kbps     00:46:24.990    30 481 kbps     00:46:31.288    152 236 bytes   726 990 bytes   00:45:11.208    
11              0:50:03.000     0:05:00.300     27 760 kbps     35 807 kbps     00:53:18.278    30 784 kbps     00:54:56.292    30 382 kbps     00:54:51.288    144 729 bytes   822 452 bytes   00:50:54.551    
12              0:55:03.300     0:05:00.300     27 330 kbps     34 586 kbps     00:58:12.488    30 873 kbps     00:59:52.046    30 412 kbps     00:56:48.905    142 486 bytes   784 745 bytes   00:59:11.548    
13              1:00:03.600     0:05:00.299     26 603 kbps     33 823 kbps     01:01:00.365    30 874 kbps     01:01:00.198    30 452 kbps     01:01:00.156    138 696 bytes   715 698 bytes   01:02:07.223    
14              1:05:03.900     0:05:00.300     28 149 kbps     35 194 kbps     01:06:53.217    31 186 kbps     01:06:33.155    30 511 kbps     01:08:41.951    146 756 bytes   733 072 bytes   01:05:33.429    
15              1:10:04.200     0:05:00.300     29 000 kbps     35 220 kbps     01:12:04.153    31 061 kbps     01:12:04.069    30 445 kbps     01:14:34.553    151 194 bytes   680 133 bytes   01:13:06.882    
16              1:15:04.500     0:05:00.300     28 073 kbps     35 194 kbps     01:16:21.076    31 091 kbps     01:15:40.077    30 381 kbps     01:16:13.568    146 361 bytes   723 281 bytes   01:19:45.280    
17              1:20:04.800     0:05:00.300     28 234 kbps     36 125 kbps     01:20:31.034    30 842 kbps     01:21:00.689    30 458 kbps     01:21:58.496    147 198 bytes   659 329 bytes   01:20:53.849    
18              1:25:05.100     0:05:00.299     28 756 kbps     34 778 kbps     01:25:46.808    31 038 kbps     01:28:27.302    30 491 kbps     01:25:17.320    149 920 bytes   694 631 bytes   01:26:51.206    
19              1:30:05.400     0:05:00.300     24 693 kbps     33 783 kbps     01:32:14.028    30 958 kbps     01:32:25.122    30 281 kbps     01:33:25.099    128 737 bytes   724 254 bytes   01:33:30.104    
20              1:35:05.700     0:03:07.854     27 961 kbps     32 441 kbps     01:37:41.814    30 705 kbps     01:36:22.234    30 458 kbps     01:36:22.234    145 810 bytes   661 502 bytes   01:36:07.261    

STREAM DIAGNOSTICS:

File            PID             Type            Codec           Language                Seconds                 Bitrate                 Bytes           Packets         
----            ---             ----            -----           --------                --------------          --------------          -------------   -----           
00001.M2TS      4113 (0x1011)   0x02            MPEG-2                                  5893,513                27 713                  20 415 676 318  111 037 072     
00001.M2TS      4352 (0x1100)   0x81            AC3             est (Estonian)          5893,513                192                     141 444 864     920 865         
00001.M2TS      4353 (0x1101)   0x81            AC3             est (Estonian)          5893,513                448                     330 038 016     1 841 730       

Manused
TheFencer-00001-bitrate-05s.png
Minu Blu-ray kollektsioon (kasvab aeglaselt, aga kindlalt)

Kasutaja avatar
eerik
Site Admin
Postitusi: 542
Liitunud: 04 Sept 2009, 15:06
Asukoht: Tallinn
Kontakt:

Re: Päris eesti oma BD

Postitus Postitas eerik » 17 Veebr 2016, 22:19

Nonii, sain lõpuks UKs välja antud Mandariinid kätte. Jällegi on tegemist väga korraliku plaadiga, nende kahe soome omaga samal tasemel. Mõlemad heliread on originaal eesti/vene/gruusia. Ingliskeelsed subtiitrid on täielikult eemaldatavad. Lisamaterjalidena on kaasas vaid viie-minutiline making-of ja treiler.

Kood: Vali kõik


DISC INFO:

Disc Title:     TANGERINES
Disc Size:      26 845 717 828 bytes
Protection:     AACS
BD-Java:        Yes
Extras:         50Hz Content
BDInfo:         0.5.8

PLAYLIST REPORT:

Name:                   00608.MPLS
Length:                 1:26:33.666 (h:m:s.ms)
Size:                   23 232 989 184 bytes
Total Bitrate:          35,79 Mbps

VIDEO:

Codec                   Bitrate             Description     
-----                   -------             -----------     
MPEG-4 AVC Video        30219 kbps          1080p / 24 fps / 16:9 / High Profile 4.1

AUDIO:

Codec                           Language        Bitrate         Description     
-----                           --------        -------         -----------     
DTS-HD Master Audio             English         1993 kbps       5.1 / 48 kHz / 1993 kbps / 16-bit (DTS Core: 5.1 / 48 kHz / 1509 kbps / 16-bit)
LPCM Audio                      English         1536 kbps       2.0 / 48 kHz / 1536 kbps / 16-bit

SUBTITLES:

Codec                           Language        Bitrate         Description     
-----                           --------        -------         -----------     
Presentation Graphics           English         17,488 kbps                     

FILES:

Name            Time In         Length          Size            Total Bitrate   
----            -------         ------          ----            -------------   
00000.M2TS      0:00:00.000     1:26:33.666     23 232 989 184  35 787          

CHAPTERS:

Number          Time In         Length          Avg Video Rate  Max 1-Sec Rate  Max 1-Sec Time  Max 5-Sec Rate  Max 5-Sec Time  Max 10Sec Rate  Max 10Sec Time  Avg Frame Size  Max Frame Size  Max Frame Time  
------          -------         ------          --------------  --------------  --------------  --------------  --------------  --------------  --------------  --------------  --------------  --------------  
1               0:00:00.000     0:04:39.750     24 202 kbps     44 964 kbps     00:04:22.208    38 556 kbps     00:04:18.791    37 789 kbps     00:02:32.041    126 035 bytes   782 483 bytes   00:03:23.583    
2               0:04:39.750     0:06:57.541     31 558 kbps     45 055 kbps     00:08:18.250    39 811 kbps     00:08:17.833    36 865 kbps     00:08:17.916    164 362 bytes   813 647 bytes   00:08:18.291    
3               0:11:37.291     0:06:37.250     29 834 kbps     52 024 kbps     00:11:46.250    39 071 kbps     00:15:47.208    37 752 kbps     00:15:47.416    155 387 bytes   821 880 bytes   00:11:47.291    
4               0:18:14.541     0:08:42.208     30 142 kbps     40 656 kbps     00:26:11.833    37 955 kbps     00:21:30.083    36 792 kbps     00:21:29.875    156 988 bytes   642 263 bytes   00:26:19.875    
5               0:26:56.750     0:11:26.125     30 968 kbps     41 221 kbps     00:28:21.333    38 387 kbps     00:28:17.375    37 823 kbps     00:28:14.833    161 294 bytes   493 293 bytes   00:35:09.250    
6               0:38:22.875     0:06:15.083     32 689 kbps     44 790 kbps     00:38:33.125    39 872 kbps     00:38:32.833    36 335 kbps     00:38:32.750    170 253 bytes   631 036 bytes   00:38:33.666    
7               0:44:37.958     0:07:01.083     32 270 kbps     48 238 kbps     00:48:19.500    39 947 kbps     00:48:19.500    37 174 kbps     00:46:36.291    168 074 bytes   745 951 bytes   00:45:30.708    
8               0:51:39.041     0:08:43.458     31 189 kbps     42 922 kbps     00:56:29.750    38 521 kbps     00:56:28.166    37 804 kbps     00:56:24.250    162 443 bytes   599 409 bytes   00:51:56.166    
9               1:00:22.500     0:06:43.375     31 942 kbps     55 585 kbps     01:05:56.250    39 328 kbps     01:05:54.875    36 891 kbps     01:00:22.500    166 367 bytes   540 988 bytes   01:05:56.291    
10              1:07:05.875     0:11:29.166     28 456 kbps     46 528 kbps     01:11:50.708    40 016 kbps     01:11:49.333    37 841 kbps     01:18:14.375    148 206 bytes   721 767 bytes   01:15:11.083    
11              1:18:35.041     0:04:56.125     26 254 kbps     41 547 kbps     01:22:19.958    35 744 kbps     01:18:57.500    35 146 kbps     01:18:52.416    136 738 bytes   696 952 bytes   01:19:59.333    
12              1:23:31.166     0:03:02.500     31 308 kbps     43 024 kbps     01:25:58.125    39 180 kbps     01:25:57.208    37 805 kbps     01:25:55.125    163 102 bytes   539 145 bytes   01:26:02.166    

STREAM DIAGNOSTICS:

File            PID             Type            Codec           Language                Seconds                 Bitrate                 Bytes           Packets         
----            ---             ----            -----           --------                --------------          --------------          -------------   -----           
00000.M2TS      4113 (0x1011)   0x1B            AVC                                     5193,542                30 220                  19 618 311 517  106 693 837     
00000.M2TS      4352 (0x1100)   0x86            DTS-HD MA       eng (English)           5193,542                1 993                   1 293 895 416   7 839 306       
00000.M2TS      4353 (0x1101)   0x80            LPCM            eng (English)           5193,542                1 542                   1 001 299 088   6 232 152       
00000.M2TS      4608 (0x1200)   0x90            PGS             eng (English)           5193,542                17                      11 353 079      65 847          

Manused
TANGERINES-00608-bitrate-05s.png
Minu Blu-ray kollektsioon (kasvab aeglaselt, aga kindlalt)

Carat_EST
Postitusi: 23
Liitunud: 01 Mär 2016, 14:21

Re: Päris eesti oma BD

Postitus Postitas Carat_EST » 02 Mär 2016, 13:37

See Soomes välja antud Vehkleja / Miekkailija (EAN 6418471165892) on selle poolest
veider BD, et pakendil pole poole sõnagagi mainitud, et plaadil üldse on eestkeelne (ja kohati ka venekeelne :-) ) heli.
Tegelikult ju koguni kaks versiooni: DTS-HD Master Audio 5.1 ja LPCM Audio 2.0

liromeno
Postitusi: 280
Liitunud: 11 Sept 2009, 10:07

Re: Päris eesti oma BD

Postitus Postitas liromeno » 02 Mär 2016, 14:12

Carat_EST kirjutas:See Soomes välja antud Vehkleja / Miekkailija (EAN 6418471165892) on selle poolest
veider BD, et pakendil pole poole sõnagagi mainitud, et plaadil üldse on eestkeelne (ja kohati ka venekeelne :-) ) heli.
Tegelikult ju koguni kaks versiooni: DTS-HD Master Audio 5.1 ja LPCM Audio 2.0
On ju selgelt kirjas "Ääniraita: Viro..."
Pilt

Carat_EST
Postitusi: 23
Liitunud: 01 Mär 2016, 14:21

Re: Päris eesti oma BD

Postitus Postitas Carat_EST » 02 Mär 2016, 21:40

Minu plaadil (Filmihullu Leffakauppa e-poest ostetud) on tagakülg teistsugune:
Vehkleja2.jpg
siin pole eesti keelt mainitud.

Carat_EST
Postitusi: 23
Liitunud: 01 Mär 2016, 14:21

Re: Päris eesti oma BD

Postitus Postitas Carat_EST » 02 Mär 2016, 22:00

Prantslaste (FNAC) Risttuules / Crosswind BD plaat

BDInfo andis vigu ja graafikud olid värvitu/valge joonega (pole seda varem pruukinud), aga muu teave nüüd siit leitav:

Kood: Vali kõik

Disc Title:     CROSSWIND
Disc Size:      27 825 323 557 bytes
Protection:     AACS
BD-Java:        No
Extras:         50Hz Content
BDInfo:         0.5.8

Notes:          

BDINFO HOME:
  Cinema Squid
    http://www.cinemasquid.com/blu-ray/tools/bdinfo

INCLUDES FORUMS REPORT FOR:
  AVS Forum Blu-ray Audio and Video Specifications Thread
    http://www.avsforum.com/avs-vb/showthread.php?t=1155731

WARNING: File errors were encountered during scan:

00002.M2TS	Index was outside the bounds of the array.
   at BDInfo.TSStreamFile.Scan(List`1 playlists, Boolean isFullScan)
   at BDInfo.FormMain.ScanBDROMThread(Object parameter)

00006.M2TS	Index was outside the bounds of the array.
   at BDInfo.TSStreamFile.Scan(List`1 playlists, Boolean isFullScan)
   at BDInfo.FormMain.ScanBDROMThread(Object parameter)

00005.M2TS	Index was outside the bounds of the array.
   at BDInfo.TSStreamFile.Scan(List`1 playlists, Boolean isFullScan)
   at BDInfo.FormMain.ScanBDROMThread(Object parameter)

00003.M2TS	Index was outside the bounds of the array.
   at BDInfo.TSStreamFile.Scan(List`1 playlists, Boolean isFullScan)
   at BDInfo.FormMain.ScanBDROMThread(Object parameter)

00007.M2TS	Index was outside the bounds of the array.
   at BDInfo.TSStreamFile.Scan(List`1 playlists, Boolean isFullScan)
   at BDInfo.FormMain.ScanBDROMThread(Object parameter)

00011.M2TS	Index was outside the bounds of the array.
   at BDInfo.TSStreamFile.Scan(List`1 playlists, Boolean isFullScan)
   at BDInfo.FormMain.ScanBDROMThread(Object parameter)

00012.M2TS	Index was outside the bounds of the array.
   at BDInfo.TSStreamFile.Scan(List`1 playlists, Boolean isFullScan)
   at BDInfo.FormMain.ScanBDROMThread(Object parameter)

********************
PLAYLIST: 00001.MPLS
********************

<--- BEGIN FORUMS PASTE --->
[code]
                                                                                                                Total   Video                                             
Title                                                           Codec   Length  Movie Size      Disc Size       Bitrate Bitrate Main Audio Track                          Secondary Audio Track
-----                                                           ------  ------- --------------  --------------  ------- ------- ------------------                        ---------------------
00001.MPLS                                                      AVC     1:27:14 0               27 825 323 557  0,00    0,00    DTS-HD Master 5.1                         

Kood: Vali kõik


DISC INFO:

Disc Title:     CROSSWIND
Disc Size:      27 825 323 557 bytes
Protection:     AACS
BD-Java:        No
Extras:         50Hz Content
BDInfo:         0.5.8

PLAYLIST REPORT:

Name:                   00001.MPLS
Length:                 1:27:14.229 (h:m:s.ms)
Size:                   0 bytes
Total Bitrate:          0,00 Mbps

VIDEO:

Codec                   Bitrate             Description     
-----                   -------             -----------     
MPEG-4 AVC Video        0 kbps              1080p / 23,976 fps / 16:9

AUDIO:

Codec                           Language        Bitrate         Description     
-----                           --------        -------         -----------     
DTS-HD Master Audio             French          0 kbps          5.1 / 48 kHz    
DTS-HD Master Audio             Estonian        0 kbps          5.1 / 48 kHz    

SUBTITLES:

Codec                           Language        Bitrate         Description     
-----                           --------        -------         -----------     
Presentation Graphics           French          0,000 kbps                      
Presentation Graphics           French          0,000 kbps                      
Presentation Graphics           English         0,000 kbps                      

FILES:

Name            Time In         Length          Size            Total Bitrate   
----            -------         ------          ----            -------------   
00002.M2TS      0:00:00.000     1:27:14.229     0               0               

CHAPTERS:

Number          Time In         Length          Avg Video Rate  Max 1-Sec Rate  Max 1-Sec Time  Max 5-Sec Rate  Max 5-Sec Time  Max 10Sec Rate  Max 10Sec Time  Avg Frame Size  Max Frame Size  Max Frame Time  
------          -------         ------          --------------  --------------  --------------  --------------  --------------  --------------  --------------  --------------  --------------  --------------  
1               0:00:00.000     0:11:55.715     0 kbps          0 kbps          00:00:00.000    0 kbps          00:00:00.000    0 kbps          00:00:00.000    0 bytes         0 bytes         00:00:00.000    
2               0:11:55.715     0:11:51.961     0 kbps          0 kbps          00:00:00.000    0 kbps          00:00:00.000    0 kbps          00:00:00.000    0 bytes         0 bytes         00:00:00.000    
3               0:23:47.676     0:09:45.334     0 kbps          0 kbps          00:00:00.000    0 kbps          00:00:00.000    0 kbps          00:00:00.000    0 bytes         0 bytes         00:00:00.000    
4               0:33:33.011     0:08:55.159     0 kbps          0 kbps          00:00:00.000    0 kbps          00:00:00.000    0 kbps          00:00:00.000    0 bytes         0 bytes         00:00:00.000    
5               0:42:28.170     0:13:25.805     0 kbps          0 kbps          00:00:00.000    0 kbps          00:00:00.000    0 kbps          00:00:00.000    0 bytes         0 bytes         00:00:00.000    
6               0:55:53.975     0:11:59.510     0 kbps          0 kbps          00:00:00.000    0 kbps          00:00:00.000    0 kbps          00:00:00.000    0 bytes         0 bytes         00:00:00.000    
7               1:07:53.486     0:12:00.344     0 kbps          0 kbps          00:00:00.000    0 kbps          00:00:00.000    0 kbps          00:00:00.000    0 bytes         0 bytes         00:00:00.000    
8               1:19:53.830     0:07:20.398     0 kbps          0 kbps          00:00:00.000    0 kbps          00:00:00.000    0 kbps          00:00:00.000    0 bytes         0 bytes         00:00:00.000    

STREAM DIAGNOSTICS:

File            PID             Type            Codec           Language                Seconds                 Bitrate                 Bytes           Packets         
----            ---             ----            -----           --------                --------------          --------------          -------------   -----           

<---- END FORUMS PASTE ---->

QUICK SUMMARY:

Disc Title: CROSSWIND
Disc Size: 27 825 323 557 bytes
Protection: AACS
BD-Java: No
Playlist: 00001.MPLS
Size: 0 bytes
Length: 1:27:14.229
Total Bitrate: 0,00 Mbps
Video: MPEG-4 AVC Video / 0 kbps / 1080p / 23,976 fps / 16:9
Audio: French / DTS-HD Master Audio / 5.1 / 48 kHz
Audio: Estonian / DTS-HD Master Audio / 5.1 / 48 kHz
Subtitle: French / 0,000 kbps
Subtitle: French / 0,000 kbps
Subtitle: English / 0,000 kbps


********************
PLAYLIST: 00005.MPLS
********************

<--- BEGIN FORUMS PASTE --->

Kood: Vali kõik

                                                                                                                Total   Video                                             
Title                                                           Codec   Length  Movie Size      Disc Size       Bitrate Bitrate Main Audio Track                          Secondary Audio Track
-----                                                           ------  ------- --------------  --------------  ------- ------- ------------------                        ---------------------
00005.MPLS                                                      AVC     0:24:14 0               27 825 323 557  0,00    0,00    DTS 2.0                                   

Kood: Vali kõik


DISC INFO:

Disc Title:     CROSSWIND
Disc Size:      27 825 323 557 bytes
Protection:     AACS
BD-Java:        No
Extras:         50Hz Content
BDInfo:         0.5.8

PLAYLIST REPORT:

Name:                   00005.MPLS
Length:                 0:24:14.840 (h:m:s.ms)
Size:                   0 bytes
Total Bitrate:          0,00 Mbps

VIDEO:

Codec                   Bitrate             Description     
-----                   -------             -----------     
MPEG-4 AVC Video        0 kbps              1080i / 25 fps / 16:9

AUDIO:

Codec                           Language        Bitrate         Description     
-----                           --------        -------         -----------     
DTS Audio                       Estonian        0 kbps          2.0 / 48 kHz    

SUBTITLES:

Codec                           Language        Bitrate         Description     
-----                           --------        -------         -----------     
Presentation Graphics           French          0,000 kbps                      
Presentation Graphics           English         0,000 kbps                      

FILES:

Name            Time In         Length          Size            Total Bitrate   
----            -------         ------          ----            -------------   
00006.M2TS      0:00:00.000     0:24:14.840     0               0               

CHAPTERS:

Number          Time In         Length          Avg Video Rate  Max 1-Sec Rate  Max 1-Sec Time  Max 5-Sec Rate  Max 5-Sec Time  Max 10Sec Rate  Max 10Sec Time  Avg Frame Size  Max Frame Size  Max Frame Time  
------          -------         ------          --------------  --------------  --------------  --------------  --------------  --------------  --------------  --------------  --------------  --------------  
1               0:00:00.000     0:24:14.840     0 kbps          0 kbps          00:00:00.000    0 kbps          00:00:00.000    0 kbps          00:00:00.000    0 bytes         0 bytes         00:00:00.000    

STREAM DIAGNOSTICS:

File            PID             Type            Codec           Language                Seconds                 Bitrate                 Bytes           Packets         
----            ---             ----            -----           --------                --------------          --------------          -------------   -----           

<---- END FORUMS PASTE ---->

QUICK SUMMARY:

Disc Title: CROSSWIND
Disc Size: 27 825 323 557 bytes
Protection: AACS
BD-Java: No
Playlist: 00005.MPLS
Size: 0 bytes
Length: 0:24:14.840
Total Bitrate: 0,00 Mbps
Video: MPEG-4 AVC Video / 0 kbps / 1080i / 25 fps / 16:9
Audio: Estonian / DTS Audio / 2.0 / 48 kHz
Subtitle: French / 0,000 kbps
Subtitle: English / 0,000 kbps


********************
PLAYLIST: 00004.MPLS
********************

<--- BEGIN FORUMS PASTE --->

Kood: Vali kõik

                                                                                                                Total   Video                                             
Title                                                           Codec   Length  Movie Size      Disc Size       Bitrate Bitrate Main Audio Track                          Secondary Audio Track
-----                                                           ------  ------- --------------  --------------  ------- ------- ------------------                        ---------------------
00004.MPLS                                                      AVC     0:16:24 0               27 825 323 557  0,00    0,00    DTS-HD Master 5.1                         

Kood: Vali kõik


DISC INFO:

Disc Title:     CROSSWIND
Disc Size:      27 825 323 557 bytes
Protection:     AACS
BD-Java:        No
Extras:         50Hz Content
BDInfo:         0.5.8

PLAYLIST REPORT:

Name:                   00004.MPLS
Length:                 0:16:24.000 (h:m:s.ms)
Size:                   0 bytes
Total Bitrate:          0,00 Mbps

VIDEO:

Codec                   Bitrate             Description     
-----                   -------             -----------     
MPEG-4 AVC Video        0 kbps              1080i / 25 fps / 16:9

AUDIO:

Codec                           Language        Bitrate         Description     
-----                           --------        -------         -----------     
DTS-HD Master Audio             Estonian        0 kbps          5.1 / 48 kHz    

FILES:

Name            Time In         Length          Size            Total Bitrate   
----            -------         ------          ----            -------------   
00005.M2TS      0:00:00.000     0:16:24.000     0               0               

CHAPTERS:

Number          Time In         Length          Avg Video Rate  Max 1-Sec Rate  Max 1-Sec Time  Max 5-Sec Rate  Max 5-Sec Time  Max 10Sec Rate  Max 10Sec Time  Avg Frame Size  Max Frame Size  Max Frame Time  
------          -------         ------          --------------  --------------  --------------  --------------  --------------  --------------  --------------  --------------  --------------  --------------  
1               0:00:00.000     0:16:24.000     0 kbps          0 kbps          00:00:00.000    0 kbps          00:00:00.000    0 kbps          00:00:00.000    0 bytes         0 bytes         00:00:00.000    

STREAM DIAGNOSTICS:

File            PID             Type            Codec           Language                Seconds                 Bitrate                 Bytes           Packets         
----            ---             ----            -----           --------                --------------          --------------          -------------   -----           

<---- END FORUMS PASTE ---->

QUICK SUMMARY:

Disc Title: CROSSWIND
Disc Size: 27 825 323 557 bytes
Protection: AACS
BD-Java: No
Playlist: 00004.MPLS
Size: 0 bytes
Length: 0:16:24.000
Total Bitrate: 0,00 Mbps
Video: MPEG-4 AVC Video / 0 kbps / 1080i / 25 fps / 16:9
Audio: Estonian / DTS-HD Master Audio / 5.1 / 48 kHz


********************
PLAYLIST: 00002.MPLS
********************

<--- BEGIN FORUMS PASTE --->

Kood: Vali kõik

                                                                                                                Total   Video                                             
Title                                                           Codec   Length  Movie Size      Disc Size       Bitrate Bitrate Main Audio Track                          Secondary Audio Track
-----                                                           ------  ------- --------------  --------------  ------- ------- ------------------                        ---------------------
00002.MPLS                                                      AVC     0:02:02 0               27 825 323 557  0,00    0,00    DTS 2.0                                   

Kood: Vali kõik


DISC INFO:

Disc Title:     CROSSWIND
Disc Size:      27 825 323 557 bytes
Protection:     AACS
BD-Java:        No
Extras:         50Hz Content
BDInfo:         0.5.8

PLAYLIST REPORT:

Name:                   00002.MPLS
Length:                 0:02:02.872 (h:m:s.ms)
Size:                   0 bytes
Total Bitrate:          0,00 Mbps

VIDEO:

Codec                   Bitrate             Description     
-----                   -------             -----------     
MPEG-4 AVC Video        0 kbps              1080p / 23,976 fps / 16:9

AUDIO:

Codec                           Language        Bitrate         Description     
-----                           --------        -------         -----------     
DTS Audio                       Estonian        0 kbps          2.0 / 48 kHz    

FILES:

Name            Time In         Length          Size            Total Bitrate   
----            -------         ------          ----            -------------   
00003.M2TS      0:00:00.000     0:02:02.872     0               0               

CHAPTERS:

Number          Time In         Length          Avg Video Rate  Max 1-Sec Rate  Max 1-Sec Time  Max 5-Sec Rate  Max 5-Sec Time  Max 10Sec Rate  Max 10Sec Time  Avg Frame Size  Max Frame Size  Max Frame Time  
------          -------         ------          --------------  --------------  --------------  --------------  --------------  --------------  --------------  --------------  --------------  --------------  
1               0:00:00.000     0:02:02.872     0 kbps          0 kbps          00:00:00.000    0 kbps          00:00:00.000    0 kbps          00:00:00.000    0 bytes         0 bytes         00:00:00.000    

STREAM DIAGNOSTICS:

File            PID             Type            Codec           Language                Seconds                 Bitrate                 Bytes           Packets         
----            ---             ----            -----           --------                --------------          --------------          -------------   -----           

<---- END FORUMS PASTE ---->

QUICK SUMMARY:

Disc Title: CROSSWIND
Disc Size: 27 825 323 557 bytes
Protection: AACS
BD-Java: No
Playlist: 00002.MPLS
Size: 0 bytes
Length: 0:02:02.872
Total Bitrate: 0,00 Mbps
Video: MPEG-4 AVC Video / 0 kbps / 1080p / 23,976 fps / 16:9
Audio: Estonian / DTS Audio / 2.0 / 48 kHz


********************
PLAYLIST: 00006.MPLS
********************

<--- BEGIN FORUMS PASTE --->

Kood: Vali kõik

                                                                                                                Total   Video                                             
Title                                                           Codec   Length  Movie Size      Disc Size       Bitrate Bitrate Main Audio Track                          Secondary Audio Track
-----                                                           ------  ------- --------------  --------------  ------- ------- ------------------                        ---------------------
00006.MPLS                                                      AVC     0:00:58 0               27 825 323 557  0,00    0,00                                              

Kood: Vali kõik


DISC INFO:

Disc Title:     CROSSWIND
Disc Size:      27 825 323 557 bytes
Protection:     AACS
BD-Java:        No
Extras:         50Hz Content
BDInfo:         0.5.8

PLAYLIST REPORT:

Name:                   00006.MPLS
Length:                 0:00:58.433 (h:m:s.ms)
Size:                   0 bytes
Total Bitrate:          0,00 Mbps

VIDEO:

Codec                   Bitrate             Description     
-----                   -------             -----------     
MPEG-4 AVC Video        0 kbps              1080p / 23,976 fps / 16:9

FILES:

Name            Time In         Length          Size            Total Bitrate   
----            -------         ------          ----            -------------   
00007.M2TS      0:00:00.000     0:00:58.433     0               0               

CHAPTERS:

Number          Time In         Length          Avg Video Rate  Max 1-Sec Rate  Max 1-Sec Time  Max 5-Sec Rate  Max 5-Sec Time  Max 10Sec Rate  Max 10Sec Time  Avg Frame Size  Max Frame Size  Max Frame Time  
------          -------         ------          --------------  --------------  --------------  --------------  --------------  --------------  --------------  --------------  --------------  --------------  
1               0:00:00.000     0:00:58.433     0 kbps          0 kbps          00:00:00.000    0 kbps          00:00:00.000    0 kbps          00:00:00.000    0 bytes         0 bytes         00:00:00.000    

STREAM DIAGNOSTICS:

File            PID             Type            Codec           Language                Seconds                 Bitrate                 Bytes           Packets         
----            ---             ----            -----           --------                --------------          --------------          -------------   -----           

<---- END FORUMS PASTE ---->

QUICK SUMMARY:

Disc Title: CROSSWIND
Disc Size: 27 825 323 557 bytes
Protection: AACS
BD-Java: No
Playlist: 00006.MPLS
Size: 0 bytes
Length: 0:00:58.433
Total Bitrate: 0,00 Mbps
Video: MPEG-4 AVC Video / 0 kbps / 1080p / 23,976 fps / 16:9


********************
PLAYLIST: 00010.MPLS
********************

<--- BEGIN FORUMS PASTE --->

Kood: Vali kõik

                                                                                                                Total   Video                                             
Title                                                           Codec   Length  Movie Size      Disc Size       Bitrate Bitrate Main Audio Track                          Secondary Audio Track
-----                                                           ------  ------- --------------  --------------  ------- ------- ------------------                        ---------------------
00010.MPLS                                                      AVC     0:00:42 0               27 825 323 557  0,00    0,00    DTS 2.0                                   DTS 2.0

Kood: Vali kõik


DISC INFO:

Disc Title:     CROSSWIND
Disc Size:      27 825 323 557 bytes
Protection:     AACS
BD-Java:        No
Extras:         50Hz Content
BDInfo:         0.5.8

PLAYLIST REPORT:

Name:                   00010.MPLS
Length:                 0:00:42.917 (h:m:s.ms)
Size:                   0 bytes
Total Bitrate:          0,00 Mbps

VIDEO:

Codec                   Bitrate             Description     
-----                   -------             -----------     
MPEG-4 AVC Video        0 kbps              1080p / 23,976 fps / 16:9

AUDIO:

Codec                           Language        Bitrate         Description     
-----                           --------        -------         -----------     
DTS Audio                       French          0 kbps          2.0 / 48 kHz    
DTS Audio                       French          0 kbps          2.0 / 48 kHz    

SUBTITLES:

Codec                           Language        Bitrate         Description     
-----                           --------        -------         -----------     
Presentation Graphics           French          0,000 kbps                      
Presentation Graphics           French          0,000 kbps                      
Presentation Graphics           French          0,000 kbps                      

FILES:

Name            Time In         Length          Size            Total Bitrate   
----            -------         ------          ----            -------------   
00011.M2TS      0:00:00.000     0:00:42.917     0               0               

CHAPTERS:

Number          Time In         Length          Avg Video Rate  Max 1-Sec Rate  Max 1-Sec Time  Max 5-Sec Rate  Max 5-Sec Time  Max 10Sec Rate  Max 10Sec Time  Avg Frame Size  Max Frame Size  Max Frame Time  
------          -------         ------          --------------  --------------  --------------  --------------  --------------  --------------  --------------  --------------  --------------  --------------  
1               0:00:00.000     0:00:42.917     0 kbps          0 kbps          00:00:00.000    0 kbps          00:00:00.000    0 kbps          00:00:00.000    0 bytes         0 bytes         00:00:00.000    

STREAM DIAGNOSTICS:

File            PID             Type            Codec           Language                Seconds                 Bitrate                 Bytes           Packets         
----            ---             ----            -----           --------                --------------          --------------          -------------   -----           

<---- END FORUMS PASTE ---->

QUICK SUMMARY:

Disc Title: CROSSWIND
Disc Size: 27 825 323 557 bytes
Protection: AACS
BD-Java: No
Playlist: 00010.MPLS
Size: 0 bytes
Length: 0:00:42.917
Total Bitrate: 0,00 Mbps
Video: MPEG-4 AVC Video / 0 kbps / 1080p / 23,976 fps / 16:9
Audio: French / DTS Audio / 2.0 / 48 kHz
Audio: French / DTS Audio / 2.0 / 48 kHz
Subtitle: French / 0,000 kbps
Subtitle: French / 0,000 kbps
Subtitle: French / 0,000 kbps


********************
PLAYLIST: 00011.MPLS
********************

<--- BEGIN FORUMS PASTE --->

Kood: Vali kõik

                                                                                                                Total   Video                                             
Title                                                           Codec   Length  Movie Size      Disc Size       Bitrate Bitrate Main Audio Track                          Secondary Audio Track
-----                                                           ------  ------- --------------  --------------  ------- ------- ------------------                        ---------------------
00011.MPLS                                                      AVC     0:00:42 0               27 825 323 557  0,00    0,00    DTS 2.0                                   DTS 2.0

Kood: Vali kõik


DISC INFO:

Disc Title:     CROSSWIND
Disc Size:      27 825 323 557 bytes
Protection:     AACS
BD-Java:        No
Extras:         50Hz Content
BDInfo:         0.5.8

PLAYLIST REPORT:

Name:                   00011.MPLS
Length:                 0:00:42.917 (h:m:s.ms)
Size:                   0 bytes
Total Bitrate:          0,00 Mbps

VIDEO:

Codec                   Bitrate             Description     
-----                   -------             -----------     
MPEG-4 AVC Video        0 kbps              1080p / 23,976 fps / 16:9

AUDIO:

Codec                           Language        Bitrate         Description     
-----                           --------        -------         -----------     
DTS Audio                       French          0 kbps          2.0 / 48 kHz    
DTS Audio                       French          0 kbps          2.0 / 48 kHz    

SUBTITLES:

Codec                           Language        Bitrate         Description     
-----                           --------        -------         -----------     
Presentation Graphics           French          0,000 kbps                      
Presentation Graphics           French          0,000 kbps                      
Presentation Graphics           French          0,000 kbps                      

FILES:

Name            Time In         Length          Size            Total Bitrate   
----            -------         ------          ----            -------------   
00012.M2TS      0:00:00.000     0:00:42.917     0               0               

CHAPTERS:

Number          Time In         Length          Avg Video Rate  Max 1-Sec Rate  Max 1-Sec Time  Max 5-Sec Rate  Max 5-Sec Time  Max 10Sec Rate  Max 10Sec Time  Avg Frame Size  Max Frame Size  Max Frame Time  
------          -------         ------          --------------  --------------  --------------  --------------  --------------  --------------  --------------  --------------  --------------  --------------  
1               0:00:00.000     0:00:42.917     0 kbps          0 kbps          00:00:00.000    0 kbps          00:00:00.000    0 kbps          00:00:00.000    0 bytes         0 bytes         00:00:00.000    

STREAM DIAGNOSTICS:

File            PID             Type            Codec           Language                Seconds                 Bitrate                 Bytes           Packets         
----            ---             ----            -----           --------                --------------          --------------          -------------   -----           

<---- END FORUMS PASTE ---->

QUICK SUMMARY:

Disc Title: CROSSWIND
Disc Size: 27 825 323 557 bytes
Protection: AACS
BD-Java: No
Playlist: 00011.MPLS
Size: 0 bytes
Length: 0:00:42.917
Total Bitrate: 0,00 Mbps
Video: MPEG-4 AVC Video / 0 kbps / 1080p / 23,976 fps / 16:9
Audio: French / DTS Audio / 2.0 / 48 kHz
Audio: French / DTS Audio / 2.0 / 48 kHz
Subtitle: French / 0,000 kbps
Subtitle: French / 0,000 kbps
Subtitle: French / 0,000 kbps

[/code]

liromeno
Postitusi: 280
Liitunud: 11 Sept 2009, 10:07

Re: Päris eesti oma BD

Postitus Postitas liromeno » 03 Mär 2016, 12:57

Supilinna salaselts on täna uuenenud veebilehel "e-poest" tellitav :-)
Saatmiskulu näiteks Omniva sektsioonkappi oleks väidetavalt 3.- kuid hetkel annab automaatselt ainukeseks võimaluseks 6.- kullerteenuse, mis no ei lähe kohe mitte!

Hind 19.99 ning lisamaterjal, mida DVD-l ei ole :D
Slipcase seevastu on tehtud vaid DVD-le ning Blu-ray esikaas vähemasti paistab masendavalt jube: :evil:

Pilt

vs

Pilt


Blu-ray kirjeldus:
• Eesti- ja venekeelne heli
• Heli vaegnägijatele
• Eesti, inglise, vene ja vaegkuuljate subtiitrid
• Bluray lisad: Supilinna Salaseltsi “making of”, SUSA videopäevikud, filmimuusika, väljajäänud stseenid
Viimati muutis liromeno, 01 Apr 2016, 02:47, muudetud 2 korda kokku.

Vasta

Kes on foorumil

Kasutajad foorumit lugemas: Google [Bot] ja 1 külaline