Päris eesti oma BD

Vasta
Kasutaja avatar
eerik
Site Admin
Postitusi: 541
Liitunud: 04 Sept 2009, 15:06
Asukoht: Tallinn
Kontakt:

Re: Päris eesti oma BD

Postitus Postitas eerik » 04 Dets 2015, 17:22

Sain lõpuks Mandariinid pärast pikka hilinemist Hispaaniast kätte. Midagi väga rõõmustavat selle juures pole. 1080i ja madal bitrate. Lisamaterjalideks on 5-minutiline making of ja hispaaniakeelne treiler. Musta värvi karbis, mis minu kollektsioonis on (vist?) esimene. Igatahes tasub kindlasti ära oodata jaanuaris ilmub UK versioon.

Kood: Vali kõik


DISC INFO:

Disc Title:     MANDARINAS
Disc Size:      17 195 304 963 bytes
Protection:     AACS
BD-Java:        No
Extras:         50Hz Content
BDInfo:         0.5.8

PLAYLIST REPORT:

Name:                   00000.MPLS
Length:                 1:23:00.160 (h:m:s.ms)
Size:                   13 862 387 712 bytes
Total Bitrate:          22,27 Mbps

VIDEO:

Codec                   Bitrate             Description     
-----                   -------             -----------     
MPEG-4 AVC Video        20317 kbps          1080i / 25 fps / 16:9 / High Profile 4.1

AUDIO:

Codec                           Language        Bitrate         Description     
-----                           --------        -------         -----------     
Dolby Digital Audio             Spanish         448 kbps        5.1 / 48 kHz / 448 kbps
Dolby Digital Audio             Estonian        448 kbps        5.1 / 48 kHz / 448 kbps

SUBTITLES:

Codec                           Language        Bitrate         Description     
-----                           --------        -------         -----------     
Presentation Graphics           Spanish         0,267 kbps                      
Presentation Graphics           Spanish         10,916 kbps                     

FILES:

Name            Time In         Length          Size            Total Bitrate   
----            -------         ------          ----            -------------   
00000.M2TS      0:00:00.000     1:22:59.760     13 862 320 128  22 270          
00001.M2TS      1:22:59.760     0:00:00.399     67 584          795             

CHAPTERS:

Number          Time In         Length          Avg Video Rate  Max 1-Sec Rate  Max 1-Sec Time  Max 5-Sec Rate  Max 5-Sec Time  Max 10Sec Rate  Max 10Sec Time  Avg Frame Size  Max Frame Size  Max Frame Time  
------          -------         ------          --------------  --------------  --------------  --------------  --------------  --------------  --------------  --------------  --------------  --------------  
1               0:00:00.000     0:00:00.360     568 kbps        0 kbps          00:00:00.000    0 kbps          00:00:00.000    0 kbps          00:00:00.000    2 556 bytes     8 457 bytes     00:00:00.279    
2               0:00:00.360     0:09:45.080     19 159 kbps     48 131 kbps     00:01:03.440    30 246 kbps     00:07:08.440    28 017 kbps     00:07:03.400    95 794 bytes    654 951 bytes   00:02:23.000    
3               0:09:45.440     0:11:49.480     20 966 kbps     33 744 kbps     00:12:48.680    28 515 kbps     00:14:09.599    26 899 kbps     00:14:07.440    104 831 bytes   594 916 bytes   00:11:15.040    
4               0:21:34.920     0:09:57.159     20 664 kbps     36 719 kbps     00:24:56.119    30 387 kbps     00:26:38.880    28 187 kbps     00:26:34.080    103 321 bytes   467 790 bytes   00:25:25.800    
5               0:31:32.080     0:11:13.360     20 017 kbps     30 709 kbps     00:40:04.200    27 411 kbps     00:34:49.160    25 236 kbps     00:34:44.800    100 086 bytes   430 630 bytes   00:42:45.440    
6               0:42:45.440     0:06:46.159     20 646 kbps     31 797 kbps     00:43:37.520    26 278 kbps     00:45:46.160    24 542 kbps     00:45:41.120    103 232 bytes   609 921 bytes   00:43:38.480    
7               0:49:31.600     0:14:46.400     20 371 kbps     33 999 kbps     00:49:58.719    28 190 kbps     00:59:23.240    25 363 kbps     00:58:29.280    101 855 bytes   458 122 bytes   01:03:15.040    
8               1:04:18.000     0:11:05.479     20 224 kbps     46 889 kbps     01:11:40.960    29 147 kbps     01:11:39.400    26 793 kbps     01:14:05.439    101 120 bytes   549 050 bytes   01:15:21.439    
9               1:15:23.479     0:07:36.680     20 549 kbps     45 738 kbps     01:18:56.040    30 083 kbps     01:18:52.560    25 802 kbps     01:18:47.520    102 825 bytes   574 883 bytes   01:17:00.720    

STREAM DIAGNOSTICS:

File            PID             Type            Codec           Language                Seconds                 Bitrate                 Bytes           Packets         
----            ---             ----            -----           --------                --------------          --------------          -------------   -----           
00000.M2TS      4113 (0x1011)   0x1B            AVC                                     4979,600                20 321                  12 648 597 755  68 877 470      
00000.M2TS      4352 (0x1100)   0x81            AC3             spa (Spanish)           4979,600                448                     278 865 664     1 556 170       
00000.M2TS      4353 (0x1101)   0x81            AC3             est (Estonian)          4979,600                448                     278 865 664     1 556 170       
00000.M2TS      4608 (0x1200)   0x90            PGS             spa (Spanish)           4979,600                0                       165 341         974             
00000.M2TS      4609 (0x1201)   0x90            PGS             spa (Spanish)           4979,600                11                      6 794 628       41 946          
00001.M2TS      4113 (0x1011)   0x1B            AVC                                     0                       0                       2 940           20              
00001.M2TS      4352 (0x1100)   0x81            AC3             spa (Spanish)           0                       0                       20 480          120             
00001.M2TS      4353 (0x1101)   0x81            AC3             est (Estonian)          0                       0                       20 480          120             
00001.M2TS      4608 (0x1200)   0x90            PGS             spa (Spanish)           0                       0                       925             12              
00001.M2TS      4609 (0x1201)   0x90            PGS             spa (Spanish)           0                       0                       925             12              

Manused
MANDARINAS-00000-bitrate-05s.png
Minu Blu-ray kollektsioon (kasvab aeglaselt, aga kindlalt)

Kasutaja avatar
eerik
Site Admin
Postitusi: 541
Liitunud: 04 Sept 2009, 15:06
Asukoht: Tallinn
Kontakt:

Re: Päris eesti oma BD

Postitus Postitas eerik » 23 Dets 2015, 14:32

Paistab, et ka Saksamaal ilmub Vehkleja ainult DVD-l (vähemalt tundub originaalheli kaasas olevat), nii et praegu on ainus kindel võimalus Blu-ray saamiseks Indiegoggo kampaania toetamine, mida on jaanuari keskpaigani pikendatud.

https://www.indiegogo.com/projects/road ... the-fencer#/
Minu Blu-ray kollektsioon (kasvab aeglaselt, aga kindlalt)

liromeno
Postitusi: 278
Liitunud: 11 Sept 2009, 10:07

Re: Päris eesti oma BD

Postitus Postitas liromeno » 23 Dets 2015, 16:17

Supilinna salaselts ilmus 2. detsembril Prantsusmaal nii DVD-l kui Blu-ray plaadil, hinnaks 19.99 EUR

Région : Région 2
Audio : français - Dolby Digital 5.1 / Version originale - Dolby Digital 5.1
Vidéo : Format 16/9 compatible 4/3, Format cinéma respecté 2.35, Format BD-50, Film en Couleurs
Sous-titre : Français


Pilt


PS salaseltslaste FB-s lubatakse nüüd jaanuari alguses va DVD-d. Kuivõrd selleks ajaks jõulud möödas ja film tuleb ETV pealt 1. jaanuaril, kaotavad nad muidugi tublisti ostjaid. Nojah. Samas nende plaadiümbris kujundatakse seiklusjuttude-sarja raamatukaanena ja igasugune pingutus selles valdkonnas on meite kandis harv ja seega kiiduväärt.

Muidu detsembri alguses seletati asja nii:
Nüüd siis halb uudis. Oleme alati püüdnud kõigile teie küsimustele vastata, ent juba päris pikka aega oleme eiranud väga paljude ühte ja sedasama küsimust - kas Supilinna Salaseltsi DVD tuleb jõuludeks välja? Lugu tuleks väga pikk, kui kõik lõpuni lahti seletada... Suurtest jõupingutustest hoolimata sattus meie teele üks ootamatu takistus, mistõttu peame teile tunnistama, et jõuluvana kingikotti sel aastal SUSA DVD kahjuks ei jõua. Oleme ise ka väga õnnetud ja palume südamest vabandust, et sellest varem teada ei andnud. Eks ikka lootsime, et leiame lahenduse.
AGA...ärge palju kurvastage, sest DVD tuleb kindlasti! Kohe kindlasti, sest töö käib ning lõpptulemus näib palju ilusam ja põnevam, kui alguses planeeritud.

Kasutaja avatar
eerik
Site Admin
Postitusi: 541
Liitunud: 04 Sept 2009, 15:06
Asukoht: Tallinn
Kontakt:

Re: Päris eesti oma BD

Postitus Postitas eerik » 25 Dets 2015, 21:06

Njah, see on lausa halenaljakas, et algselt septembriks lubatud väljaanne lükkub järgmisesse aastasse, samas kui prantslased saavad ilma igasuguse kisa ja kärata oma plaadi detsembriks müügile. Olgu pakend kuitahes uhke, jõuluhooaja möödumisega kaotati kindlasti palju potentsiaalseid ostjaid. Tellisin igatahes prantslaste versiooni ära, loodetavasti on see teine helirada ikka eestikeelne, mitte soome nagu Amazon.fr väidab.
Minu Blu-ray kollektsioon (kasvab aeglaselt, aga kindlalt)

liromeno
Postitusi: 278
Liitunud: 11 Sept 2009, 10:07

Re: Päris eesti oma BD

Postitus Postitas liromeno » 03 Jaan 2016, 23:44

Soomlaste peatne 1944 on tagakaane järgi igati ootustväärt - kõik lisamaterjalid, 1080p24 ning isegi DTS-HD 5.1 Eestikeelne audio (vist esmakordselt)

Pilt

Kasutaja avatar
eerik
Site Admin
Postitusi: 541
Liitunud: 04 Sept 2009, 15:06
Asukoht: Tallinn
Kontakt:

Re: Päris eesti oma BD

Postitus Postitas eerik » 06 Jaan 2016, 18:11

liromeno kirjutas:isegi DTS-HD 5.1 Eestikeelne audio (vist esmakordselt
Mitte päris, sain täna prantslaste Supilinna Salaseltsi kätte. :)

Kood: Vali kõik


DISC INFO:

Disc Title:     TWINNERS
Disc Size:      20 895 473 679 bytes
Protection:     AACS
BD-Java:        No
Extras:         50Hz Content
BDInfo:         0.5.8

PLAYLIST REPORT:

Name:                   00001.MPLS
Length:                 1:44:52.600 (h:m:s.ms)
Size:                   20 233 629 696 bytes
Total Bitrate:          25,72 Mbps

VIDEO:

Codec                   Bitrate             Description     
-----                   -------             -----------     
MPEG-4 AVC Video        19952 kbps          1080i / 25 fps / 16:9 / High Profile 4.1

AUDIO:

Codec                           Language        Bitrate         Description     
-----                           --------        -------         -----------     
DTS-HD Master Audio             French          2232 kbps       5.1 / 48 kHz / 2232 kbps / 16-bit (DTS Core: 5.1 / 48 kHz / 1509 kbps / 16-bit)
DTS-HD Master Audio             Estonian        1897 kbps       5.1 / 48 kHz / 1897 kbps / 16-bit (DTS Core: 5.1 / 48 kHz / 1509 kbps / 16-bit)

SUBTITLES:

Codec                           Language        Bitrate         Description     
-----                           --------        -------         -----------     
Presentation Graphics           French          41,647 kbps                     

FILES:

Name            Time In         Length          Size            Total Bitrate   
----            -------         ------          ----            -------------   
00002.M2TS      0:00:00.000     1:44:47.560     20 232 308 736  25 743          
00010.M2TS      1:44:47.560     0:00:05.039     1 320 960       2 097           

CHAPTERS:

Number          Time In         Length          Avg Video Rate  Max 1-Sec Rate  Max 1-Sec Time  Max 5-Sec Rate  Max 5-Sec Time  Max 10Sec Rate  Max 10Sec Time  Avg Frame Size  Max Frame Size  Max Frame Time  
------          -------         ------          --------------  --------------  --------------  --------------  --------------  --------------  --------------  --------------  --------------  --------------  
1               0:00:00.000     0:09:31.720     20 275 kbps     42 393 kbps     00:00:15.320    32 741 kbps     00:00:12.919    29 829 kbps     00:02:51.519    101 370 bytes   570 635 bytes   00:00:52.320    
2               0:09:31.720     0:11:04.960     21 123 kbps     44 494 kbps     00:11:35.119    35 051 kbps     00:09:41.640    32 655 kbps     00:14:12.040    105 614 bytes   571 642 bytes   00:18:34.800    
3               0:20:36.680     0:11:43.839     18 031 kbps     43 899 kbps     00:25:07.040    35 498 kbps     00:25:04.960    31 414 kbps     00:25:02.840    90 156 bytes    485 244 bytes   00:20:39.560    
4               0:32:20.520     0:06:21.520     20 770 kbps     40 308 kbps     00:37:53.840    34 377 kbps     00:37:52.440    30 670 kbps     00:37:52.320    103 852 bytes   473 006 bytes   00:38:38.640    
5               0:38:42.040     0:10:04.639     20 186 kbps     37 494 kbps     00:44:10.960    31 262 kbps     00:43:22.600    29 209 kbps     00:43:22.320    100 931 bytes   519 165 bytes   00:44:48.560    
6               0:48:46.680     0:07:18.880     23 404 kbps     43 528 kbps     00:48:47.600    35 343 kbps     00:48:46.680    31 426 kbps     00:53:48.640    117 021 bytes   489 507 bytes   00:48:48.600    
7               0:56:05.560     0:09:24.480     13 269 kbps     37 633 kbps     01:05:22.720    31 036 kbps     01:00:27.600    26 177 kbps     00:56:09.960    66 346 bytes    434 224 bytes   01:00:32.439    
8               1:05:30.040     0:06:45.119     20 364 kbps     39 025 kbps     01:08:19.960    34 657 kbps     01:10:54.760    29 621 kbps     01:08:19.560    101 821 bytes   508 376 bytes   01:11:57.000    
9               1:12:15.160     0:09:40.520     17 929 kbps     36 733 kbps     01:14:09.640    29 107 kbps     01:12:15.960    27 398 kbps     01:14:09.600    89 644 bytes    444 416 bytes   01:21:36.080    
10              1:21:55.680     0:06:05.039     20 077 kbps     39 251 kbps     01:26:07.200    33 503 kbps     01:26:03.760    31 742 kbps     01:26:02.600    100 387 bytes   499 704 bytes   01:25:29.720    
11              1:28:00.720     0:08:18.359     22 413 kbps     39 061 kbps     01:33:25.400    31 454 kbps     01:34:58.680    29 084 kbps     01:33:33.200    112 063 bytes   497 259 bytes   01:31:49.640    
12              1:36:19.080     0:08:33.520     23 707 kbps     41 456 kbps     01:39:02.120    34 951 kbps     01:36:20.840    30 931 kbps     01:36:20.640    118 547 bytes   702 527 bytes   01:39:04.080    

STREAM DIAGNOSTICS:

File            PID             Type            Codec           Language                Seconds                 Bitrate                 Bytes           Packets         
----            ---             ----            -----           --------                --------------          --------------          -------------   -----           
00002.M2TS      4113 (0x1011)   0x1B            AVC                                     6287,400                19 967                  15 692 669 419  85 378 099      
00002.M2TS      4352 (0x1100)   0x86            DTS-HD MA       fra (French)            6287,400                2 234                   1 755 388 192   10 520 155      
00002.M2TS      4353 (0x1101)   0x86            DTS-HD MA       est (Estonian)          6287,400                1 898                   1 492 068 948   9 081 635       
00002.M2TS      4608 (0x1200)   0x90            PGS             fra (French)            6287,400                42                      32 758 438      186 057         
00010.M2TS      4113 (0x1011)   0x1B            AVC                                     4,880                   1 993                   1 215 779       6 697           

Paraku jälle 1080i 25fps ning põgusal läbi klõpsimisel mitte just kõige parema kompressiooniga.

Eestikeelse heliga on prantsuskeelsed subtiitrid forced (pleieri poolt peale surutud) aga mitte burnt-in (pildi sisse kõrvetatud). Uhkema pleieriga või läbi sobiliku tarkvaraga läbi arvuti vaadates saab neist ilusti lahti.

Algustiitrid (st tegijate ja näitlejate nimed ekraanil) on prantsuskeelsete kirjeldustega, samas lõputiitrid on eesti keeles.

Mingeid lisamaterjale pole, kui just plaadi käima panemisel näidatavat (mingi teise filmi) reklaami mitte arvestada.
Manused
TWINNERS-00001-bitrate-05s.png
Minu Blu-ray kollektsioon (kasvab aeglaselt, aga kindlalt)

liromeno
Postitusi: 278
Liitunud: 11 Sept 2009, 10:07

Re: Päris eesti oma BD

Postitus Postitas liromeno » 08 Jaan 2016, 17:50

Vehkleja sai täna IGG toetussumma kokku kogutud ja paslik siinkohal mainida, et Blu-ray'd lubatakse nüüd mitmelt poolt:
- Soomes pidi plaat ilmuma täna! hinnaga ~14 EUR. Ilmselt enneaegne lubadus...
- Saksamaal peaks plaat ilmuma 17.06.2016 (Die Kinder des Fechters)

Kasutaja avatar
eerik
Site Admin
Postitusi: 541
Liitunud: 04 Sept 2009, 15:06
Asukoht: Tallinn
Kontakt:

Re: Päris eesti oma BD

Postitus Postitas eerik » 09 Jaan 2016, 21:07

liromeno kirjutas:Vehkleja sai täna IGG toetussumma kokku kogutud ja paslik siinkohal mainida, et Blu-ray'd lubatakse nüüd mitmelt poolt:
- Soomes pidi plaat ilmuma täna! hinnaga ~14 EUR. Ilmselt enneaegne lubadus...
- Saksamaal peaks plaat ilmuma 17.06.2016 (Die Kinder des Fechters)
Soome Blu-ray on tore üllatus. Nordisk Filmi kodulehele on ka info tekkinud:
Kuvaformaatti: High Definition Widescreen 2.39:1 (1080P)
Ääniraita: viro - DTS HD MA, Stereo, suomi- kuvailutulkkaus
Tekstitys: suomi, ruotsi, englanti, suomi heikkokuuloiset
Levyjen lukumäärä: 0
Väri/mv: Värillinen
Aluekoodi: Alue B
Stereo heli on ilmselt valeinfo, sest DVD kohta on märgitud 5.1 (mis peaks ka meie kohalikult plaadil olema). Plaatide arvuks on ka 0 märgitud. :)

Paar päeva tagasi saksa Amazonist otsides seal veel Blu-rayst märke polnud, jätkuvalt ainult DVD, aga loodetavasti tuleb ikka BD ka.
Minu Blu-ray kollektsioon (kasvab aeglaselt, aga kindlalt)

Kasutaja avatar
eerik
Site Admin
Postitusi: 541
Liitunud: 04 Sept 2009, 15:06
Asukoht: Tallinn
Kontakt:

Re: Päris eesti oma BD

Postitus Postitas eerik » 11 Jaan 2016, 16:32

Discshop.fi andmetel ilmub Vehkleja 29. jaanuaril, samas Filmihullu on kuupäevaks märkinud 23. jaanuari.
Minu Blu-ray kollektsioon (kasvab aeglaselt, aga kindlalt)

liromeno
Postitusi: 278
Liitunud: 11 Sept 2009, 10:07

Re: Päris eesti oma BD

Postitus Postitas liromeno » 11 Jaan 2016, 18:27

Kahju, et Vehkleja plaadil lisamaterjale ei paista olevat :-(

BTW DVDBeaveri avaleheküljel on esimese Eesti filmina "Important upcoming releases" hulgas näha ka Mandariinide UK plaati :-)

Vasta

Kes on foorumil

Kasutajad foorumit lugemas: Registreeritud kasutajaid pole ja 1 külaline